<?xml version="1.0" standalone="no"?>
<!DOCTYPE svg PUBLIC "-//W3C//DTD SVG 1.1//EN" "http://www.w3.org/Graphics/SVG/1.1/DTD/svg11.dtd" >
<svg xmlns="http://www.w3.org/2000/svg">
<metadata></metadata>
<defs>
<font id="yew_basturdnormal" horiz-adv-x="721" >
<font-face units-per-em="1000" ascent="800" descent="-200" />
<missing-glyph horiz-adv-x="676" />
<glyph horiz-adv-x="1000" />
<glyph horiz-adv-x="1000" />
<glyph unicode="&#xd;" horiz-adv-x="676" />
<glyph unicode=" "  horiz-adv-x="676" />
<glyph unicode="&#x09;" horiz-adv-x="676" />
<glyph unicode="&#xa0;" horiz-adv-x="676" />
<glyph unicode="!" horiz-adv-x="401" d="M292 329q0 -17 -29.5 -56.5t-47.5 -46.5q-42 -17 -48 -17q-14 0 -21.5 6.5t-12.5 43.5q-4 28 -4 46q0 -6 0 51q1 92 3 299q0 30 6 55q7 32 50 67.5t72 35.5q9 0 20.5 -7.5t11.5 -16.5v-460zM302 141q0 -37 -23 -78t-56 -62q-37 -23 -56 -23q-27 0 -27 32q0 54 41 111 t91 57q30 0 30 -37z" />
<glyph unicode="&#x22;" horiz-adv-x="583" d="M489 621q0 -20 -29.5 -58t-58.5 -50q-21 -8 -31 -8q-14 0 -24 10q-5 6 -6 16v75q0 48 6 111q3 33 42.5 72t72.5 39q28 0 28 -20v-187zM279 768l-4 -52q-4 -57 -6 -87q0 -2 2 -9t2 -11q1 -37 -38.5 -79t-76.5 -42q-26 0 -32 23q-1 5 -1 38q0 12 10 158q3 33 43 72t73 39 q22 0 27 -17q1 -5 1 -33z" />
<glyph unicode="#" horiz-adv-x="836" d="M758 583q0 -32 -29.5 -69t-67.5 -53q0 -8 1.5 -32t1.5 -39h53q35 -2 35 -31q0 -31 -33 -72q-2 -2 -23 -18q-17 -12 -18 -22q5 -51 6 -139q-3 -35 -47 -76.5t-79 -41.5h-18q-9 3 -12 17q-6 37 -11 101q-5 81 -8 104q-2 2 -5 2q-21 0 -102 -31q-1 -19 1 -31q2 -5 6 -14 q7 -41 -42 -94.5t-92 -53.5q-24 0 -31 25l-2 108q-42 -29 -74 -29q-36 0 -36 31t35 73q32 38 72 61v71l-2 2q-9 -9 -32 -19.5t-37 -10.5q-15 0 -25.5 12t-10.5 25q0 31 35 72.5t72 56.5v191q0 20 37 63.5t60.5 49.5t29.5 6q27 0 31 -25l2 -210q37 12 94 26q-19 124 -19 108 q0 40 44.5 88t86.5 48q29 0 31 -28q9 -48 20 -178q66 8 64 8q38 0 38 -32zM501 354q-2 26 -6 71q-63 -16 -95 -21q0 -45 1.5 -66t1.5 -14q16 5 49 14.5t49 15.5z" />
<glyph unicode="$" horiz-adv-x="680" d="M592 344q0 -61 -26 -113q-7 -11 -20 -35q-20 -38 -92 -92q-16 -8 -49 -31q-2 -7 -6 -22q-7 -21 -32 -49q-28 -30 -53 -41q-14 -6 -28 -6q-29 0 -29 35q0 27 10 41q-41 8 -83 15q-69 18 -69 60t46 94t89 52q27 0 27 -28q0 -7 -2 -19q32 -20 77 -20q20 0 52 12 q29 12 34.5 20t5.5 33q0 30 -21 62q-24 33 -50 33q-3 0 -84 -41.5t-108 -41.5q-29 0 -45 31q-14 24 -14 48q0 25 8.5 53.5t17.5 51.5q20 52 40 85q24 40 53 73q19 13 45 42q3 21 7 62q4 34 44 74t74 40q28 0 28 -34q0 -9 -2.5 -24t-2.5 -18v-37q23 5 77 -15q63 -24 63 -62 q0 -37 -40.5 -79.5t-77.5 -42.5q-11 0 -37.5 22t-65.5 22q-25 0 -34 -8q-14 -13 -30.5 -52.5t-16.5 -57.5q0 -9 4 -16q54 27 108 55q44 22 80 22q37 0 74.5 -30t49.5 -76q4 -13 4 -47z" />
<glyph unicode="%" horiz-adv-x="962" d="M511 624q0 -98 -107 -167q-90 -58 -176 -58q-39 0 -77 19q-47 25 -47 66q0 75 60 166q66 100 148 125q4 3 13 9q29 14 46 14t50.5 -18.5t41.5 -31.5q48 -78 48 -124zM755 748q0 -21 -23 -64q-17 -31 -34 -61q-49 -102 -155 -263l-178 -264q-70 -104 -130 -104 q-30 0 -30 31q0 29 37 85q13 14 35 41q68 94 119 169q105 154 212 368q17 34 50 63q37 31 67 31t30 -32zM866 213q0 -43 -36.5 -97t-90.5 -82q-31 -15 -83 -28.5t-84 -13.5q-40 0 -64.5 28t-24.5 65q0 16 12 64q15 63 65 129q53 71 113 99q24 11 53 11q75 0 112 -60 q28 -46 28 -115zM345 560q-31 75 -62 75q-7 0 -16 -22q-7 -18 -7 -25q0 -5 13 -15.5t21 -12.5q14 -3 29 -3q16 0 22 3zM705 156v8q-15 54 -53 64q-14 -35 -14 -44q0 -14 9 -24t22 -10q16 0 36 6z" />
<glyph unicode="&#x26;" horiz-adv-x="639" d="M542 250q0 -14 -8 -55q-4 -23 -4 -43q0 -10 1.5 -24.5t1.5 -20.5q0 -10 -2 -19q-5 -25 -39 -56.5t-59 -31.5q-22 0 -28 28q-3 12 -3 48q0 16 9 61q-42 -5 -119 -18q-56 -10 -85 -10q-34 0 -60 11q-35 15 -35 43q0 23 22 59.5t51 57.5q-35 3 -62 25q-30 24 -30 55 q0 43 37.5 95t88.5 85q73 48 150 68q6 1 35 12v80q0 16 29.5 50t48 39.5t23.5 5.5q24 0 26 -27v-45q1 -33 3 -100q0 -1 2 -7.5t2 -9.5q0 -23 -23 -52.5t-50 -43.5q-17 -9 -38 -9q-30 -1 -37 -2q-114 -22 -167 -59q12 -29 61 -29q2 0 76.5 7.5t77.5 7.5q41 0 41 -24t-27 -57 q-28 -37 -59 -46q-61 -17 -125 -57q5 -3 17 -3q1 0 156 22q19 2 36 10q27 12 40 12q25 0 25 -33z" />
<glyph unicode="'" horiz-adv-x="450" d="M311 768l-4 -52q-4 -57 -6 -87q0 -2 2 -9t2 -11q1 -37 -38.5 -79t-76.5 -42q-26 0 -32 23q-1 5 -1 38q0 12 10 158q3 33 43 72t73 39q22 0 27 -17q1 -5 1 -33z" />
<glyph unicode="(" horiz-adv-x="486" d="M381 785q0 -19 -11.5 -36.5t-32.5 -51.5q-61 -132 -61 -298q0 -35 13 -143q3 -24 13 -45q15 -34 27 -55q9 -7 24 -19q8 -8 8 -21q0 -39 -47 -83.5t-81 -44.5q-27 0 -53 54q-16 32 -23 48q-14 33 -16 52q-13 139 -13 170q0 142 56 313q18 54 61 112q56 74 106 74 q30 0 30 -26z" />
<glyph unicode=")" horiz-adv-x="476" d="M394 354q0 -83 -40 -205q-31 -92 -86 -139q-39 -33 -69 -33q-28 0 -28 28q0 15 17 44q22 38 26 49q7 29 21 83q12 36 12 82q0 101 -26 194q-2 13 -29 96q-4 11 -39 76q-31 57 -31 68q0 37 42 79.5t78 42.5q18 0 23 -11q28 -50 74 -149q20 -53 37 -145q18 -96 18 -160z " />
<glyph unicode="*" horiz-adv-x="668" d="M560 727q0 -15 -13 -36.5t-26 -30.5q-16 -8 -40 -23q-20 -15 -60 -59q17 -17 41.5 -30.5t78.5 -49.5q3 -3 3 -15q0 -29 -32.5 -59.5t-56.5 -30.5q2 0 -66 37q-1 -17 3 -71q2 -27 -30 -61t-60 -34q-30 0 -21 40l-1 128q-12 -11 -34 -37q-18 -29 -46 -50.5t-48 -21.5 q-22 0 -22 22q0 29 58 91q39 40 78 81q-29 25 -57 51q-53 49 -53 66q0 29 32.5 59.5t57.5 30.5q10 0 23 -15q19 -23 21 -26q-2 35 29 70t60 35q21 0 21 -32q0 -3 -4.5 -47.5t-4.5 -45.5v-15q28 26 55 52q38 35 62 43q17 7 27 7q25 0 25 -23z" />
<glyph unicode="+" horiz-adv-x="785" d="M674 442q0 -29 -34 -69t-63 -49q-20 -6 -48 -6q-53 0 -50 0v-141q0 -2 -19 -40q-7 -15 -32.5 -38t-41 -28.5t-27.5 -5.5q-9 0 -18 5q-12 6 -11 14v219q-36 -3 -101 -9q-57 -6 -59 -6q-43 0 -43 30q0 34 39.5 76.5t71.5 45.5t87 8q1 0 4 3v113q0 20 35 60.5t57.5 46.5 t28.5 6q29 0 29 -18v-192h18q3 0 45.5 2.5t46.5 2.5h53q32 -5 32 -30z" />
<glyph unicode="," horiz-adv-x="504" d="M368 121q0 -30 -10 -67q-11 -42 -52 -98q-51 -69 -95 -69q-27 0 -27 24q0 17 17 43q24 38 29 48.5t5 36.5q0 22 -13 50q-16 37 -16 43q0 31 36.5 69t68.5 38q13 0 17 -3q20 -21 37 -77q3 -11 3 -38z" />
<glyph unicode="-" d="M552 424q0 -26 -31.5 -63.5t-60.5 -45.5q-19 -5 -33 -5q-2 0 -63.5 4.5t-64.5 4.5h-105q-9 0 -15.5 9.5t-6.5 17.5q0 30 36.5 70.5t71.5 44.5h56q35 0 111 -4q84 -4 91 -8q14 -9 14 -25z" />
<glyph unicode="." horiz-adv-x="610" d="M398 94q0 -30 -36.5 -66t-67.5 -36q-12 0 -18 5q-6 10 -20 29q-18 21 -18 42q0 30 34.5 67.5t66.5 37.5q10 0 17 -6q3 -8 9 -23q4 -7 20 -26q13 -15 13 -24z" />
<glyph unicode="/" horiz-adv-x="684" d="M620 793q0 -14 -12 -36q-18 -31 -20 -36q-101 -258 -301 -594q-91 -153 -160 -153q-31 0 -31 32q0 26 17 53q16 21 49 69q89 150 112 191q27 50 70 135q35 72 77 174q14 36 53 118q15 27 50.5 52.5t61.5 25.5q14 0 24 -9.5t10 -21.5z" />
<glyph unicode="0" d="M626 500q0 -127 -35 -240q-47 -152 -147 -221q-77 -53 -133 -53q-100 0 -153 125q-38 90 -38 187q0 100 34 213t90 201t113 88q3 0 12 -4.5t12.5 -5.5t23.5 -2q27 -1 61 -10q91 -22 131 -116q29 -67 29 -162zM479 406q0 70 -12 100q-9 24 -18 49q-14 33 -34 51 q-14 12 -28.5 16.5t-30.5 9.5q-13 2 -37 6q-20 -40 -37 -117q-18 -80 -18 -135q0 -63 28 -140q40 -108 108 -108q25 0 32 12q47 89 47 256z" />
<glyph unicode="1" horiz-adv-x="513" d="M373 737q0 -4 -2.5 -37.5t-2.5 -37.5v-409q0 -2 -3 -13.5t-3 -15.5v-109q0 -13 -20 -47q-18 -30 -52.5 -56t-60.5 -26q-33 0 -33 31q0 3 3 9.5t3 9.5v114q0 14 5 41l-2 353q-21 -14 -41 -14q-33 0 -33 35q0 36 63 114q47 58 68 75q48 40 80 40q25 0 31 -23v-34z" />
<glyph unicode="2" horiz-adv-x="676" d="M626 661q0 -63 -85 -181q-51 -63 -101 -126q-44 -59 -132 -183q20 0 66.5 3t45.5 3q71 0 127 -11q10 -7 31 -20q27 -14 27 -39q0 -39 -42.5 -84.5t-80.5 -45.5q-14 0 -26.5 13t-30.5 18q-31 9 -102 9q-35 0 -109 -9.5t-68 -9.5q-32 0 -32 32q0 31 52 110q26 42 99 150 q12 17 123 160q81 104 81 115q0 15 -19 36q-16 18 -33 27q-20 11 -49 9q-1 -1 -4 -5q-6 -40 -49.5 -80.5t-76.5 -40.5q-40 0 -40 44q0 32 23 73q41 75 116 124q72 48 136 48q55 0 103 -40q50 -43 50 -99z" />
<glyph unicode="3" horiz-adv-x="748" d="M741 443q0 -42 -37 -115q-29 -60 -64 -107q-53 -71 -118 -118q-81 -59 -153 -105q-25 -16 -94 -55q-39 -23 -80 -46.5t-64 -23.5q-32 0 -32 31q0 22 21.5 54t47.5 51q4 3 63 36q42 22 124 71q58 38 115 76q63 46 93 104q20 39 20 51q0 32 -41 56q-7 7 -60 30 q-52 17 -116 17q-20 0 -81 -7q-8 0 -30 -4.5t-24 -4.5q-14 0 -23 10.5t-9 20.5q0 84 176 167q-67 5 -154 2q-4 0 -21 -2.5t-19 -2.5q-35 0 -35 31q0 38 41 80t76 48l40 6h265q4 0 31.5 3t31.5 3q50 0 50 -32q0 -20 -23.5 -55.5t-48.5 -51.5q-13 -7 -34 -20q-14 -12 -42 -34 q208 -45 208 -164z" />
<glyph unicode="4" horiz-adv-x="818" d="M709 647v-126q-18 -292 -32 -476q-2 -33 -44 -74q-43 -44 -78 -44q-30 0 -30 50q0 1 6 98q7 110 10 175q-52 4 -147 18q-181 40 -258 104q-16 14 -16 38q0 37 30 73l104 108q96 99 119 136q15 23 48 45.5t57 22.5q34 0 34 -34q0 -29 -22 -57q-54 -67 -186 -204 q26 -15 80 -40q34 -12 95 -27q54 -15 61 -15h16q-6 58 0 256q1 36 43 79.5t81 43.5q16 0 22.5 -7.5t6.5 -42.5v-100z" />
<glyph unicode="5" horiz-adv-x="683" d="M634 758q0 -35 -44 -82t-82 -47q10 0 -37 2q-40 1 -77 0q-7 0 -34.5 -2t-43.5 -2q0 -87 -1 -82q10 8 51.5 22.5t59.5 14.5q44 0 108 -54q39 -33 59 -95q17 -50 17 -101q0 -107 -38 -184q-61 -122 -148 -195q-93 -78 -189 -78q-47 0 -101 22q-64 26 -64 64q0 40 46.5 84 t80.5 44q14 0 24 -11q15 -15 26 -20q45 -22 82 -22q70 0 102 85q20 54 20 111q0 119 -84 168q-30 18 -39 18q-23 0 -71 -34.5t-74 -34.5q-31 0 -31 40q0 3 2.5 17.5t2.5 18.5v123q0 19 17 131q6 42 53.5 86t84.5 44q11 0 22 -6q5 -3 11 -15l199 6q53 0 57 -1q33 -6 33 -35z " />
<glyph unicode="6" horiz-adv-x="720" d="M633 428q0 -141 -120 -293q-123 -154 -245 -154q-152 0 -152 226q0 146 66 298q63 148 158 231q86 75 144 75q55 0 55 -35q0 -31 -33.5 -71.5t-64.5 -51.5q-17 -2 -51 -10q-12 -5 -33 -44q-29 -58 -43 -92q-27 -70 -36 -147l1 -23q78 90 128 131q75 63 135 63 q57 0 77 -33q14 -22 14 -70zM472 327q0 20 -2 25q-4 14 -21 14q-15 0 -59.5 -56t-44.5 -66q0 -4 6.5 -14.5t6.5 -14.5q0 -13 -10 -35q-7 -14 -14 -29q25 -6 31 -6q40 0 75 69q32 62 32 113z" />
<glyph unicode="7" horiz-adv-x="676" d="M673 768q0 -16 -20 -54q-15 -28 -86 -85q-44 -36 -73 -77q-1 -1 -49 -77q-58 -90 -84 -187q-19 -67 -31 -178q-4 -35 -48.5 -78.5t-79.5 -43.5q-23 0 -29 14q-3 6 -3 26q0 2 4.5 23t5.5 32q8 122 60 239q-31 3 -62 7q-51 10 -51 38t32 67.5t65 54.5q20 10 57 10 q40 0 46 -8q40 61 98 137q-69 7 -246 2q-5 0 -16.5 -2.5t-14.5 -2.5q-32 0 -32 31q0 45 52 91.5t98 46.5h330q2 0 17.5 3t20.5 3q39 0 39 -32z" />
<glyph unicode="8" horiz-adv-x="705" d="M627 295q0 -37 -44 -99q-57 -82 -170 -151q-109 -66 -177 -66q-33 0 -72 21q-44 23 -55 57q-6 18 -6 65q0 62 19 105q21 47 82 114q-44 37 -44 103q0 33 20 92q34 104 121 184t171 80q28 0 39 -10.5t11 -26.5q100 -33 100 -135q0 -94 -114 -204q59 -17 91 -55 q28 -34 28 -74zM467 535q0 33 -28.5 56t-64.5 23q-3 0 -17 -2t-20 -2q-22 -30 -22 -71q0 -65 62 -65q13 0 17 1q14 3 38.5 18t33.5 26q1 1 1 16zM470 214q0 6 -17.5 22.5t-25.5 20.5q-23 9 -44 15q-17 5 -35 7t-23 25h-9q-34 -16 -47.5 -34t-13.5 -52q0 -27 4 -37 q6 -18 31 -31q22 -11 41 -11q26 0 60 19q4 2 60 37q19 12 19 19z" />
<glyph unicode="9" horiz-adv-x="701" d="M592 302q0 -65 -1 -74q-9 -74 -52 -143q-52 -83 -127 -100q-27 -7 -153 -7q-105 0 -119 1t-22.5 14t-8.5 23q0 44 53.5 95t94.5 51q17 0 30 -14h135q5 8 5 44q0 -5 -2.5 58.5t-2.5 102.5q0 4 -5 13l-78 -38q-44 -21 -75 -21q-75 0 -121 57q-42 51 -42 120q0 87 58 167 q62 84 171 132q35 15 101 15q82 0 115 -20q46 -28 46 -105q0 -4 -5.5 -44t-5.5 -43t2.5 -28t2.5 -29v-109q0 -4 3 -59.5t3 -58.5zM413 507q0 -8 -1.5 19t-1.5 87q-19 15 -79 15q-38 0 -46 -3q-20 -8 -20 -37q0 -31 18.5 -60t52.5 -43q18 -8 26 -8q51 17 51 30z" />
<glyph unicode=":" horiz-adv-x="454" d="M318 224q0 -31 -36.5 -66.5t-67.5 -35.5q-12 0 -18 5q-6 10 -20 29q-18 21 -18 42q0 30 34.5 67.5t66.5 37.5q10 0 17 -6q3 -8 9 -23q4 -7 20 -26q13 -15 13 -24zM318 580q0 -30 -36.5 -66t-67.5 -36q-12 0 -18 5q-6 10 -20 29q-18 21 -18 42q0 30 34.5 67.5t66.5 37.5 q10 0 17 -6q3 -8 9 -23q4 -7 20 -26q13 -15 13 -24z" />
<glyph unicode=";" horiz-adv-x="441" d="M279 554q0 -34 -40 -70.5t-67 -36.5q-17 0 -22 9q-18 37 -18 71q0 31 36 68.5t68 37.5q18 0 22 -9q21 -45 21 -70zM314 137q0 -35 -9 -69q-12 -42 -51 -93q-48 -62 -90 -62q-25 0 -25 24q0 19 15 42q21 33 23 39q8 17 8 37q0 5 -4 24q-3 11 -11 39q-7 24 -7 27 q0 30 34.5 69t69.5 39q13 0 16 -3t16 -37q15 -37 15 -76z" />
<glyph unicode="&#x3c;" horiz-adv-x="726" d="M660 789q0 -32 -20 -56q-92 -104 -221 -229q-31 -26 -95 -79q47 -37 139 -117q27 -31 80 -90q31 -32 86 -98q4 -6 4 -19q0 -40 -44.5 -87t-85.5 -47q-16 0 -20 4l-114 128q-85 94 -149 141l-56 40q-48 38 -48 58q0 72 121 153q62 42 159 138q132 134 158 157q35 32 74 32 q32 0 32 -29z" />
<glyph unicode="=" horiz-adv-x="763" d="M624 570q0 -43 -48 -93.5t-92 -50.5q-3 0 -82 4.5t-81 4.5h-135q-32 0 -32 36q0 40 49.5 91t91.5 52q33 1 74 1q48 0 212 -6q43 -1 43 -39zM639 307q0 -47 -51.5 -95.5t-97.5 -48.5q-2 0 -81.5 6t-84.5 6q-3 0 -70.5 -6t-72.5 -6q-30 0 -39 3q-23 7 -23 31 q0 38 46.5 90.5t90.5 54.5q32 2 105 8q65 5 68 5q1 0 56 -3.5t83 -4.5t36 -2q24 -4 29.5 -14.5t5.5 -23.5z" />
<glyph unicode="&#x3e;" horiz-adv-x="683" d="M570 436q0 -39 -43 -90t-131 -158l-88 -124q-52 -69 -99 -69q-30 0 -30 30t69 122q14 21 44 62q14 19 72 87q44 53 44 57q0 1 -44 56q-17 23 -49 63l-74 90q-72 91 -72 112q0 35 39 79t79 44q10 0 14.5 -1.5t19.5 -23.5q23 -35 25 -37q59 -73 118 -145q106 -133 106 -154 z" />
<glyph unicode="?" horiz-adv-x="683" d="M560 698q0 -73 -159 -285q20 3 45 16q22 12 38 12q31 0 31 -28q0 -15 -18 -48q-26 -46 -103 -81q-67 -31 -116 -31q-45 0 -45 52q0 30 24 69q24 33 47 67l56 76q49 71 49 85q0 17 -31 33q-27 14 -41 14q-36 0 -49 -31q0 -2 4 -17q1 -4 -3 -20q-7 -36 -46.5 -70.5 t-70.5 -34.5q-40 0 -40 44q0 27 13 54q3 6 26 45q51 86 119 133.5t138 47.5q39 0 82 -27q50 -32 50 -75zM451 152q0 -42 -65.5 -99t-100.5 -57q-12 0 -20.5 10t-8.5 20q0 41 66 100q64 55 98 55q31 0 31 -29z" />
<glyph unicode="@" horiz-adv-x="926" d="M793 395q0 -2 -10 -37q-10 -39 -13 -53q-20 -95 -119 -185q-91 -82 -166 -92q-2 0 -29 -8q-62 -17 -81 -17q-33 0 -72 16.5t-65 42.5q-59 59 -95 153q-11 30 -11 108q0 117 52 224q7 21 25 63q36 71 143 154q46 36 84 48q28 8 77 8q100 0 154 -59q28 -30 28 -84 q0 -39 -12 -81q-13 -48 -37 -85q-18 -29 -29 -42q-3 -5 -16.5 -18t-13.5 -15q0 -3 14.5 -40t14.5 -40q0 -26 -30.5 -56t-53.5 -30q-16 0 -21 11q-9 24 -29 71q-26 -17 -84 -51q-6 -4 -26 -26q-6 -6 -25 -16t-26 -10q-9 0 -36 18q0 21 4 31q8 11 22 34q9 34 28 98 q14 49 50 143q10 20 34 35q15 8 29 16q32 25 52 25q4 0 8 -1q9 -9 10 -20q8 -65 40 -118q7 12 16 34q11 50 11 68q0 52 -56 79q-41 20 -85 20q-59 0 -95 -28q-28 -21 -62 -80q-1 -8 -7 -23q-49 -82 -49 -195q0 -59 14 -92q30 -73 75 -121q55 -58 116 -58q42 0 118 29 q13 5 32 16q32 19 49 44q21 32 32 68q8 29 15 59q0 12 2.5 35.5t32 50t48.5 26.5q24 0 24 -47zM457 421q-3 7 -8.5 21t-8.5 21q-3 -10 -8.5 -31t-8.5 -30q13 8 34 19z" />
<glyph unicode="A" horiz-adv-x="751" d="M698 119q0 -38 -39 -84q-42 -49 -83 -49q-9 0 -19 7.5t-10 19.5q-1 39 -24 97l-36 93q-130 -78 -211 -137q-15 -16 -48 -49q-39 -34 -81 -34q-40 0 -40 45q0 28 8 56q26 86 91 280q41 120 82 218q40 95 59 125q56 93 119 93q13 0 21 -5.5t9.5 -19t2.5 -24.5q7 -18 18 -53 q82 -273 165 -501q16 -44 16 -78zM456 305q-28 88 -70 212q-76 -219 -112 -329q9 6 182 117z" />
<glyph unicode="B" horiz-adv-x="761" d="M754 349q0 -64 -54 -135.5t-135 -123.5q-38 -24 -97 -48q-66 -25 -111 -31q-36 -1 -115 -7q-8 -5 -24 -14q-20 -8 -33 -8q-28 0 -31 19q0 7 -1 18q-34 12 -41 17q-13 10 -13 32q0 17 7 31q5 10 24 39q16 24 16 27q0 -1 -3 101q0 58 -1 116q-1 65 -13 167q-1 7 -9 11 q-12 6 -13 8q-11 10 -11 25q0 2 9 22.5t11 31.5q9 46 51 86.5t78 40.5q17 0 26 -13.5t10 -13.5q3 0 52 20q79 33 172 33q57 0 118 -23q89 -32 89 -94q0 -40 -31 -96t-71 -92q144 -59 144 -146zM555 584q0 14 -43 33q-32 14 -47 17q-21 3 -58 3q-53 0 -117 -18q3 -45 8 -131 q31 11 110 26q66 12 106.5 32t40.5 38zM597 253q0 27 -38 49q-51 30 -86 41q-38 11 -93 11t-82 -11q5 -115 11 -172q40 -6 61 -6q20 0 89 9q20 2 71 25q67 29 67 54z" />
<glyph unicode="C" horiz-adv-x="661" d="M636 252q0 -2 -4 -16t-5 -20q-6 -37 -30 -74q-26 -41 -64 -63q-79 -47 -173 -78q-38 -13 -78 -13q-104 0 -151 93q-33 66 -33 164q0 126 57 268q66 162 175 248q46 36 83 36q54 0 119 -79q11 -12 23.5 -26t12.5 -26q0 -34 -40 -76t-76 -42q-15 0 -27 12q-2 2 -31 34.5 t-56 48.5q-94 -139 -94 -307q0 -197 126 -197q20 0 24 1q16 2 58 20q16 5 42 20q5 12 19 37q15 22 42 42q31 24 54 24q27 0 27 -31z" />
<glyph unicode="D" horiz-adv-x="782" d="M786 645q0 -28 -13 -66q-11 -31 -23 -62q-40 -116 -191 -258q-125 -118 -262 -199q-22 -9 -63 -28q-16 -11 -31 -21t-34 -10q-20 0 -25 9q-10 17 -13 58q-10 111 -14 218v342q0 6 -1.5 19.5t-3.5 18.5t-8 11q0 2 -1.5 8.5t-1.5 10.5q0 39 45.5 84.5t85.5 45.5 q24 0 30 -17t11 -33q17 9 80 19q60 10 95 10q80 0 172 -19q122 -25 147 -68q4 -7 10 -19q9 -28 9 -54zM629 548q0 21 -9 33q-24 33 -123 49q-71 12 -143 12q-61 0 -82 -11v-195q-1 -28 13 -245q17 5 44 16q83 50 157 118q99 88 122 158q7 16 14 34t7 31z" />
<glyph unicode="E" horiz-adv-x="750" d="M705 781q0 -41 -44.5 -84.5t-81.5 -43.5q-3 0 -27.5 1.5t-27.5 1.5q-84 0 -247 -15v-114q19 -5 33 -5q-15 0 91.5 21t191.5 21q31 0 42 -2q25 -7 25 -29q0 -27 -30 -64.5t-60 -53.5q-20 -10 -51 -11q-26 0 -52 -1q-43 -4 -128 -16q-6 -1 -55 -14q2 -37 4 -52 q3 -27 11 -57l10 -46q8 -34 17 -51.5t30 -17.5q5 0 48 11t65 19q43 15 71 31q2 2 50 46q9 9 30.5 18t31.5 9q13 0 21 -10.5t8 -21.5q0 -34 -34 -77q-38 -50 -116 -97q-39 -23 -129 -54q-99 -34 -143 -34q-57 0 -76 33q-23 41 -36 113q-7 24 -16 73q-9 73 -9 132v343 q0 25 35.5 66t59 47.5t30.5 6.5q17 0 22.5 -8t12.5 -8q2 0 41 7q43 7 60 8q162 14 235 14h52q35 -6 35 -35z" />
<glyph unicode="F" horiz-adv-x="649" d="M653 792q0 -32 -37 -76q-40 -46 -83 -53q-38 -6 -45 -6h-143q-2 0 -23 -2q-24 -3 -37 -4q-1 -1 -5 -3q0 -95 7 -176q126 61 257 61q36 0 43 -2q24 -6 24 -30q0 -32 -35.5 -75t-66.5 -49q-4 -1 -102 -9q-73 -5 -116 -25v-243q0 -5 -5 -11q-7 -25 -32 -55q-28 -33 -54 -43 q-22 -9 -35 -9q-30 0 -30 20v288q0 3 -5.5 71.5t-5.5 72.5v272q0 25 35.5 66t59.5 48t31 7q24 0 25.5 -13.5t13.5 -13.5q4 0 72 9.5t72 9.5h145q2 0 18 2.5t19 2.5q38 0 38 -32z" />
<glyph unicode="G" horiz-adv-x="805" d="M774 169q0 -36 -41.5 -80t-78.5 -44q-21 0 -35 23q-26 -23 -114 -59q-96 -38 -143 -38q2 0 -61 12q-19 2 -51 11q-74 40 -109 124q-25 63 -25 136q0 46 20 128q44 185 200 306q142 110 292 110q62 0 96 -36q7 -7 7 -32q0 -37 -42.5 -83t-80.5 -46q-20 0 -28.5 20.5 t-43.5 20.5q-80 0 -149 -44.5t-90 -113.5q-9 -30 -18 -59q-9 -35 -9 -77q0 -61 21 -112q28 -64 83 -91q6 -2 44 -9t37 -7q30 0 85 22q50 20 76 39v104h-91q-32 0 -58 -9.5t-40 -9.5q-47 0 -47 36q0 34 40 79.5t79 47.5q25 2 75 8q29 4 97 4q6 0 26 1q16 2 27 1q18 -2 37 -9 q9 -3 10 -18q1 -14 -2 -42q-2 -31 -2 -29v-124q0 -3 3.5 -30t3.5 -31z" />
<glyph unicode="H" horiz-adv-x="871" d="M781 109q0 -39 -44 -85t-83 -46q-23 0 -32 21l-11 47q-13 61 -18 148q-8 129 -9 145l-292 -8q8 -100 8 -95v-137q0 -37 -46 -85.5t-85 -48.5q-22 0 -29 13q-5 10 -1 42q4 35 2 80q-6 89 -20 277l-13 170q0 -14 3 121q0 39 46.5 85.5t85.5 46.5q27 0 27 -32q0 -8 -1 -20 q-3 -22 1 -147q1 -53 1 -54q2 -30 10 -56q5 0 16.5 -1.5t14.5 -1.5t64 5t65 5h140q1 89 -4 130q-1 6 -7 21.5t-6 19.5q0 38 44.5 86t83.5 48q19 0 26 -11q15 -24 19 -62q6 -62 6 -136v-132q0 -20 7 -126q9 -123 15 -159q2 -9 9 -39q7 -26 7 -29z" />
<glyph unicode="I" horiz-adv-x="678" d="M601 120q0 -30 -30.5 -67.5t-68.5 -52.5q-17 -7 -44 -6h-40q-162 -16 -216 -16q-84 0 -84 37q0 41 46 84t81 43q-7 0 48 -5q0 4 -1.5 14.5t-1.5 13.5v139l-6 94q-7 102 -8 151q-4 81 -2 103q-20 0 -61 -4t-40 -4q-34 0 -34 31q0 37 41 80q39 40 74 46q62 12 182 12 q-4 0 21 1q22 1 40 0q24 -1 38 -5t14 -29q0 -39 -43 -81.5t-77 -41.5l14 -201v-173q0 -3 2 -12t2 -13q6 -71 6 -111q95 6 87 6q34 0 42 -3q19 -6 19 -30z" />
<glyph unicode="J" horiz-adv-x="748" d="M705 779q0 -25 -25 -59t-58 -53q10 -86 31 -232q13 -87 13 -148q0 -121 -63 -207q-74 -100 -200 -100q-90 0 -185 49q-110 57 -110 134q0 69 72 160t128 91q29 0 29 -31q0 -18 -17 -49q-8 -14 -35 -40q-21 -21 -21 -33q0 -36 75 -77q55 -29 80 -34q53 -12 87 -12 q7 19 7 49q0 19 -27 227t-27 250h-43q-2 0 -80 -13.5t-83 -13.5q-36 0 -36 32q0 43 53 90q49 45 86 45q3 0 11.5 -1.5t11.5 -1.5t51 8q53 9 74 12q8 1 65 1t81 -5q15 -2 44 -12q11 -6 11 -26z" />
<glyph unicode="K" horiz-adv-x="795" d="M772 94q0 -37 -44.5 -82t-79.5 -45q-21 0 -34 20.5t-25 41.5q-8 20 -76 112q-35 42 -98 101q-74 70 -120 97q-1 -17 1 -47q2 -40 2 -55q0 -13 -4 -49q-5 -39 -5 -49q2 -7 5 -18q-2 -37 -46.5 -82.5t-80.5 -45.5q-19 0 -25.5 9.5t-4.5 74.5l3 15q3 57 -1 142 q-2 63 -10 197q-6 121 -6 122q0 76 3 136q1 36 42.5 79.5t79.5 43.5q30 0 30 -22v-186q0 -48 9 -128q49 56 151 162q24 23 64.5 73t60.5 67q33 29 63 29q29 0 29 -29q0 -32 -29 -72q-35 -46 -198 -221q83 -51 177 -151.5t136 -181.5q5 -9 21 -30q10 -12 10 -28z" />
<glyph unicode="L" horiz-adv-x="704" d="M696 136q0 -40 -46.5 -87.5t-87.5 -47.5q-3 0 -45.5 4t-46.5 4q-50 0 -92 -8q-66 -14 -130 -28t-68 -14q-21 0 -29 7t-12.5 34t-6.5 58q-6 57 -14 170q-12 191 -12 360q0 100 1 113q2 37 47.5 81.5t83.5 44.5q32 0 32 -23v-154q0 -113 11 -286q5 -43 13 -128 q1 -36 9 -102q25 5 68 15q101 30 200 30q125 0 125 -43z" />
<glyph unicode="M" horiz-adv-x="1046" d="M971 105q0 -41 -42 -88q-43 -50 -88 -50q-27 0 -30 20q-3 43 -12 129q-6 25 -16 82q-5 37 -13 117q-2 60 -11 162q-35 -66 -66 -171q-25 -97 -50 -193q-10 -35 -51.5 -70t-71.5 -35q-21 0 -19 0q-9 2 -15 17q-34 91 -72 224q-32 113 -63 225q-61 -193 -68 -304 q-2 -4 -4 -13q-2 -56 -48.5 -108t-87.5 -52q-31 0 -31 36q0 7 8 65q9 65 15 92q14 64 66 248q28 98 41 136q27 80 59 140q14 25 49 56q9 9 63 32q36 16 47 16q29 0 32 -33q1 -25 1 -50q2 -36 10 -101q12 -69 77 -266q5 15 18 46q28 49 75 144q30 70 84 139q73 94 132 94 q33 0 33 -23v-164q0 -3 2 -22t2 -27q0 -38 5 -114q5 -45 19 -161q3 -14 9 -41q12 -87 12 -134z" />
<glyph unicode="N" horiz-adv-x="830" d="M731 118q0 -41 -40 -90q-44 -53 -88 -53q-16 0 -24.5 9.5t-6.5 9.5q-4 0 -8.5 -1.5t-7.5 -1.5q-23 0 -37.5 23.5t-29.5 47.5q-46 57 -105 142q-50 73 -100 145q0 -86 7 -196q0 -8 6 -34t6 -29q0 -40 -42 -82.5t-79 -42.5q-28 0 -37 24q-3 8 -7 50q-14 141 -14 321 q0 2 4 105t4 106v137l7 19q12 34 51 68t70 34q15 0 21 -5q14 -14 4 -48q-2 -10 6 -31q66 -169 272 -453q5 38 5 80v334q0 1 7 21q12 37 50.5 69.5t69.5 32.5q21 0 25 -18q2 -6 1 -35q-12 -330 0 -628q0 -3 5 -13t5 -17z" />
<glyph unicode="O" horiz-adv-x="862" d="M821 531q0 -136 -75 -259q-83 -135 -240 -227q-48 -28 -109 -47.5t-103 -19.5q-99 0 -144 77q-34 57 -34 143q0 198 115 384q121 197 282 223q94 15 88 15q78 0 139.5 -58t74.5 -151q6 -44 6 -80zM667 433q0 144 -90 204q-35 23 -70 23q-18 0 -31 -4q-16 -4 -45 -16 q-14 -8 -36 -19q-10 -3 -24 -12q-47 -61 -73 -154q-25 -83 -25 -160q0 -56 20 -97q29 -60 96 -60q46 0 120 36q84 41 117 98q41 71 41 161z" />
<glyph unicode="P" horiz-adv-x="705" d="M719 687q0 -91 -104 -194q-94 -93 -204 -134q-31 -12 -124 -35q1 -40 8 -123q5 -77 5 -78q0 -42 -41 -90t-84 -48q-17 0 -23 6q-11 11 -13 38q-17 159 -17 261v143q0 3 -2.5 31t-2.5 31v133q0 2 -5.5 11.5t-5.5 13.5t4.5 16.5t5.5 17.5q7 44 48.5 85t78.5 41 q18 0 23.5 -8t8.5 -8q-1 0 34 10q92 25 157 25q148 0 225 -79q28 -29 28 -66zM559 588q0 16 -39 41q-32 21 -47 26q-29 8 -49 10q-70 4 -58 4q-16 0 -92 -13q5 -114 5 -167q14 -1 22.5 -6t10.5 -5q8 0 53 8q51 10 78 19q16 5 70 36q46 26 46 47z" />
<glyph unicode="Q" horiz-adv-x="881" d="M846 469q0 -53 -12 -123q-15 -88 -41 -131l-20 -33q0 -9 41 -37q12 -7 12 -25q0 -41 -47 -84.5t-84 -43.5q-20 0 -42.5 22t-21.5 22q3 0 -29 -17q-86 -48 -169 -48q-148 0 -244 91t-96 219q0 37 17 113q7 20 16 55q27 116 144 233q112 113 209 132q62 13 68 13 q4 0 29 -13q7 -1 18 -2q33 -3 55 -13q197 -86 197 -330zM689 379q0 96 -22 136q-80 141 -213 141q-3 0 -26 -6.5t-26 -6.5q-4 0 -9 3t-8 3q-7 0 -35 -26q-25 -22 -28 -27q-20 -26 -35 -58q-19 -43 -31 -105q-6 -30 -6 -55q0 -98 76 -169q80 -76 200 -76q16 0 33 1 q-22 29 -51 64q-18 20 -36 40.5t-18 34.5q0 40 46.5 86t88.5 46q12 0 18 -3.5t9 -15.5l4 -14q9 -15 33 -39.5t30 -34.5q6 55 6 81z" />
<glyph unicode="R" horiz-adv-x="797" d="M761 114q0 -39 -43 -84t-82 -45q-29 0 -65 71q-11 25 -37 69q-26 34 -64 70q-47 46 -79 57t-102 27q-2 -1 -2 -148q6 -16 6 -24q0 -39 -43 -87q-45 -51 -86 -51q-10 0 -21 5.5t-11 14.5v383q0 3 -2.5 46.5t-2.5 46.5v107q-37 0 -37 31q0 16 14 44q7 9 17 26q8 42 20 61 q18 29 49 51.5t57 22.5q23 0 34 -24q70 32 162 32q78 0 150 -19q94 -24 138 -74q14 -16 14 -56q0 -69 -57.5 -144.5t-144.5 -126.5q32 -27 64 -55q44 -39 63 -65q23 -31 49 -80.5t38 -64.5q4 -4 4 -17zM587 570q0 27 -68 54q-43 16 -78 23q-45 9 -96 9q-3 0 -25 -2 q-25 -2 -33 -2l-4 3v-32q0 11 5 -77v-98q30 17 63 20l56 4q45 9 114 43q19 9 39 18q27 16 27 37z" />
<glyph unicode="S" horiz-adv-x="714" d="M709 296q0 -63 -50 -140q-19 -29 -56 -64.5t-64 -48.5q-52 -26 -131 -46q-82 -21 -136 -21q-114 0 -114 72q0 43 51 110q55 72 105 72q29 0 29 -33q0 -20 -18 -50q12 -10 45 -10q41 0 105 17q59 16 75 27q1 7 1 13q0 53 -59 100q-54 42 -100 42q-2 0 -63 -19 q-69 -21 -101 -28q-37 -9 -65 -9q-69 0 -69 87q0 99 92 232q95 138 208 191q19 9 53 25q24 9 91 9q126 0 126 -90q0 -21 -1 -28q-6 -39 -48.5 -78.5t-76.5 -39.5q-26 0 -30 19q1 11 -1 32q-5 18 -31 22q-5 1 -36 1q-38 0 -50 -4q-47 -13 -93.5 -80.5t-46.5 -112.5 q0 -3 1.5 -9.5t1.5 -11.5l2.5 -1t6.5 -1t112.5 28t111.5 28q59 0 120 -37q67 -41 94 -105q9 -21 9 -60z" />
<glyph unicode="T" horiz-adv-x="854" d="M835 782q0 -40 -46 -86t-85 -46q-3 0 -17.5 3t-19.5 4q-10 1 -37 1q-18 0 -94 -4q-15 -1 -44 -6q1 -40 6 -126q5 -78 5 -80v-110q0 -4 2.5 -74t2.5 -73q0 -37 -1 -81q-1 -38 -47 -86.5t-83 -48.5q-13 0 -24 6q-6 4 -8 21q-2 14 0 23q5 19 5 61q0 4 -2.5 49t-2.5 48v109 q0 3 -5.5 96.5t-5.5 97.5v159h-30q-4 0 -118.5 -17.5t-118.5 -17.5q-13 0 -23 9.5t-10 22.5q0 35 41 81t81 52q60 10 182 27q81 8 239 17q134 8 148 8q50 0 68 -3q42 -8 42 -36z" />
<glyph unicode="U" horiz-adv-x="805" d="M739 136q0 -43 -36 -89q-39 -49 -84 -49q-12 0 -20.5 5t-9.5 21v21q-3 16 -7 50q-57 -53 -141.5 -89t-152.5 -36q-67 0 -100 24q-67 48 -67 255q0 2 4 94q5 97 5 121q4 113 4 125q4 78 13 110.5t48 68t70 35.5q30 0 30 -38q0 -3 -10.5 -211t-10.5 -211q0 -170 46 -204 q14 -11 63 -11q66 0 117 31q6 9 20 27q21 26 51 41q-13 324 -13 381v94q2 32 43 74t78 42q30 0 30 -22v-125q0 -2 2 -36t2 -43q1 -77 6 -202q3 -49 12 -156q8 -96 8 -98z" />
<glyph unicode="V" horiz-adv-x="672" d="M655 772q0 -13 -18 -64l-22 -64q-22 -70 -60 -213q-18 -81 -36 -163q-20 -96 -27 -163q-5 -40 -46.5 -84t-78.5 -44q-15 0 -18 4q-7 8 -30 55q-48 99 -73 167l-84 222q-46 124 -70 224q-1 3 -6.5 14t-5.5 14q0 40 45.5 84t83.5 44q15 0 21 -4.5t10 -34.5q3 -19 10 -45 q22 -77 145 -402q35 134 64 232q11 31 33 99q12 41 21 59q18 39 50 67.5t61 28.5q31 0 31 -33z" />
<glyph unicode="W" horiz-adv-x="924" d="M912 818q0 -2 -6.5 -26.5t-8.5 -35.5q-5 -63 -22 -187q-2 -13 -45 -165q-15 -54 -83 -280q-13 -40 -55 -81t-77 -41q-22 0 -35 18q-12 22 -24 45q-3 14 -10 41q-2 8 -18 67q-13 55 -41 166q-29 -93 -58 -187q-37 -108 -85 -143q-39 -27 -61 -27q-17 0 -23 6l-12 36 q-43 111 -54 172q-22 104 -45 208q-36 171 -36 261q0 23 1 27q5 37 47.5 76t73.5 39q28 0 33 -32q0 -25 1 -49q8 -97 33 -220q22 -98 44 -195q1 -1 3 2q23 61 47 166q19 89 39 178q8 32 47.5 67.5t71.5 35.5q19 0 23 -8q7 -14 15 -54q4 -23 12 -67q36 -207 70 -318 q38 116 50 182q8 76 29 228q5 28 34 66q31 43 62 55q22 9 32 9q31 0 31 -35z" />
<glyph unicode="X" horiz-adv-x="841" d="M799 131q0 -43 -48.5 -91t-89.5 -48q-18 0 -22 4q-28 25 -82 105q-18 27 -172 232q-30 -36 -86 -113q-29 -43 -60 -127q-16 -42 -53 -78q-41 -39 -77 -39q-32 0 -32 33q0 20 13 50q9 22 19 43q32 77 52 108q27 42 98 133q61 79 61 82q0 9 -53 77q-46 54 -131 157 q-9 12 -9 26q0 39 48 88t91 49q17 0 37 -6.5t24 -10.5q8 -8 2 -45q67 -81 128 -162q46 56 113 115q91 79 135 79q33 0 33 -34q0 -62 -117 -139q-27 -18 -66 -63q-35 -41 -35 -48q0 -1 106 -143q32 -43 112 -160q2 -3 57 -58q4 -4 4 -16z" />
<glyph unicode="Y" horiz-adv-x="691" d="M696 682q0 -259 -221 -374q4 -56 11 -161q0 -8 3.5 -25.5t3.5 -19.5q0 -38 -44 -84.5t-81 -46.5q-19 0 -25.5 9t-8.5 36q-1 19 -1 38q-1 30 -4 87q-9 105 -9 99q0 16 2 31q-8 3 -25 4q-112 7 -163 103q-38 71 -38 176q0 3 11 139q3 38 46.5 82.5t79.5 44.5q35 0 35 -32 q0 -3 -5.5 -19.5t-6.5 -22.5q-6 -34 -6 -96q0 -220 172 -220q78 0 99 33q9 14 14 50q7 49 7 78q0 25 -20 78v16q0 38 40 84t80 46q21 0 25 -9q17 -36 26 -80q3 -18 3 -44z" />
<glyph unicode="Z" horiz-adv-x="903" d="M866 116q0 -40 -45.5 -84t-80.5 -44q-18 0 -38 12q-5 5 -16 11q-23 8 -55 11q-11 1 -107 1h-105q-29 -2 -185 -22q-20 -3 -72 -12q-46 -8 -49 -8q-37 0 -37 35q0 29 43 110q19 23 54 69q106 149 380 462q-70 1 -123 -4q-35 -4 -116 -13q-71 -8 -74 -8q-28 0 -37 4 q-16 7 -16 28q0 39 46 87t85 48q3 0 14 -2.5t14 -2.5q-4 0 39 4q66 8 132.5 15t147.5 7t144 -11q22 -4 22 -31q0 -22 -23.5 -55.5t-45.5 -49.5q-14 -10 -38 -19q-20 -7 -39 -15q-10 -3 -26 -15q-266 -286 -387 -467q35 3 120 13q116 15 228 15q103 0 114 -1q26 -5 75 -14 q4 0 22 -14q7 -2 21 -10q14 -11 14 -30z" />
<glyph unicode="[" horiz-adv-x="595" d="M545 136q0 -30 -28.5 -68.5t-63.5 -52.5q-17 -8 -28 -8q-34 -1 -101 -4q-23 -3 -77 -10q-48 -7 -50 -7q-10 0 -25 8t-15 19v113q0 2 -9 54.5t-10 72.5q-6 68 -6 175q0 139 6 239q1 22 31.5 60t59.5 49q35 14 52 14h143q4 0 16 3.5t15 3.5q29 0 29 -30q0 -35 -37.5 -77 t-74.5 -49q-30 -6 -88 -6q-2 -29 -2 -105q0 -142 25 -294l2 -93q78 16 174 18q4 0 17 3.5t16 3.5q29 0 29 -32z" />
<glyph unicode="\" horiz-adv-x="757" d="M697 105q0 -37 -42 -81t-78 -44q-18 0 -23 6q-63 74 -106 145q-38 55 -111 166q-81 131 -184 302q-37 61 -37 73q0 36 42 80t80 44q19 0 24 -7q17 -22 39 -61q33 -60 35 -63q19 -31 60 -98q111 -180 112 -181q70 -112 133 -200q11 -16 42 -48q14 -14 14 -33z" />
<glyph unicode="]" horiz-adv-x="621" d="M514 187q0 -3 -2.5 -8t-2.5 -7q1 -21 -1 -61q-6 -40 -49 -78.5t-81 -38.5q-3 0 -70.5 5t-70.5 5t-37 -2.5t-36 -2.5q-32 0 -32 30q0 40 49 85q46 44 81 44h103v104q0 2 -2.5 33t-2.5 34v317q-5 -5 -13 -5q-4 0 -14.5 2.5t-15.5 2.5h-103q-26 0 -26 30q0 35 42 78.5 t78 44.5q30 1 55 1q151 0 151 -34v-579z" />
<glyph unicode="^" horiz-adv-x="642" d="M536 598q0 -32 -37.5 -70.5t-70.5 -38.5q-5 0 -31 20q-30 22 -105 118q-33 -36 -66 -71q-43 -44 -76 -44q-28 0 -28 26q0 29 41 75q36 39 71 78q12 19 35 50q50 57 94 57q15 0 18 -4q16 -23 50 -69q21 -28 71 -80l25 -22q9 -10 9 -25z" />
<glyph unicode="_" horiz-adv-x="651" d="M661 93q0 -31 -40.5 -73t-72.5 -42q-2 0 -6.5 2.5t-7.5 2.5h-208q-2 0 -20.5 2t-21.5 2h-243q-22 0 -22 29q0 33 40 73.5t74 40.5h247q3 0 21 -2.5t21 -2.5h212q11 0 19 -13t8 -19z" />
<glyph unicode="`" horiz-adv-x="531" d="M378 640q0 -33 -39.5 -72.5t-71.5 -39.5q-14 0 -41 33q-15 17 -36 51q-28 71 -28 90q0 33 37.5 72.5t71.5 39.5q14 0 17 -4q10 -9 15 -27.5t18 -54.5q6 -12 54 -71q3 -5 3 -17z" />
<glyph unicode="a" horiz-adv-x="751" d="M698 119q0 -38 -39 -84q-42 -49 -83 -49q-9 0 -19 7.5t-10 19.5q-1 39 -24 97l-36 93q-130 -78 -211 -137q-15 -16 -48 -49q-39 -34 -81 -34q-40 0 -40 45q0 28 8 56q26 86 91 280q41 120 82 218q40 95 59 125q56 93 119 93q13 0 21 -5.5t9.5 -19t2.5 -24.5q7 -18 18 -53 q82 -273 165 -501q16 -44 16 -78zM456 305q-28 88 -70 212q-76 -219 -112 -329q9 6 182 117z" />
<glyph unicode="b" horiz-adv-x="761" d="M754 349q0 -64 -54 -135.5t-135 -123.5q-38 -24 -97 -48q-66 -25 -111 -31q-36 -1 -115 -7q-8 -5 -24 -14q-20 -8 -33 -8q-28 0 -31 19q0 7 -1 18q-34 12 -41 17q-13 10 -13 32q0 17 7 31q5 10 24 39q16 24 16 27q0 -1 -3 101q0 58 -1 116q-1 65 -13 167q-1 7 -9 11 q-12 6 -13 8q-11 10 -11 25q0 2 9 22.5t11 31.5q9 46 51 86.5t78 40.5q17 0 26 -13.5t10 -13.5q3 0 52 20q79 33 172 33q57 0 118 -23q89 -32 89 -94q0 -40 -31 -96t-71 -92q144 -59 144 -146zM555 584q0 14 -43 33q-32 14 -47 17q-21 3 -58 3q-53 0 -117 -18q3 -45 8 -131 q31 11 110 26q66 12 106.5 32t40.5 38zM597 253q0 27 -38 49q-51 30 -86 41q-38 11 -93 11t-82 -11q5 -115 11 -172q40 -6 61 -6q20 0 89 9q20 2 71 25q67 29 67 54z" />
<glyph unicode="c" horiz-adv-x="661" d="M636 252q0 -2 -4 -16t-5 -20q-6 -37 -30 -74q-26 -41 -64 -63q-79 -47 -173 -78q-38 -13 -78 -13q-104 0 -151 93q-33 66 -33 164q0 126 57 268q66 162 175 248q46 36 83 36q54 0 119 -79q11 -12 23.5 -26t12.5 -26q0 -34 -40 -76t-76 -42q-15 0 -27 12q-2 2 -31 34.5 t-56 48.5q-94 -139 -94 -307q0 -197 126 -197q20 0 24 1q16 2 58 20q16 5 42 20q5 12 19 37q15 22 42 42q31 24 54 24q27 0 27 -31z" />
<glyph unicode="d" horiz-adv-x="782" d="M786 645q0 -28 -13 -66q-11 -31 -23 -62q-40 -116 -191 -258q-125 -118 -262 -199q-22 -9 -63 -28q-16 -11 -31 -21t-34 -10q-20 0 -25 9q-10 17 -13 58q-10 111 -14 218v342q0 6 -1.5 19.5t-3.5 18.5t-8 11q0 2 -1.5 8.5t-1.5 10.5q0 39 45.5 84.5t85.5 45.5 q24 0 30 -17t11 -33q17 9 80 19q60 10 95 10q80 0 172 -19q122 -25 147 -68q4 -7 10 -19q9 -28 9 -54zM629 548q0 21 -9 33q-24 33 -123 49q-71 12 -143 12q-61 0 -82 -11v-195q-1 -28 13 -245q17 5 44 16q83 50 157 118q99 88 122 158q7 16 14 34t7 31z" />
<glyph unicode="e" horiz-adv-x="750" d="M705 781q0 -41 -44.5 -84.5t-81.5 -43.5q-3 0 -27.5 1.5t-27.5 1.5q-84 0 -247 -15v-114q19 -5 33 -5q-15 0 91.5 21t191.5 21q31 0 42 -2q25 -7 25 -29q0 -27 -30 -64.5t-60 -53.5q-20 -10 -51 -11q-26 0 -52 -1q-43 -4 -128 -16q-6 -1 -55 -14q2 -37 4 -52 q3 -27 11 -57l10 -46q8 -34 17 -51.5t30 -17.5q5 0 48 11t65 19q43 15 71 31q2 2 50 46q9 9 30.5 18t31.5 9q13 0 21 -10.5t8 -21.5q0 -34 -34 -77q-38 -50 -116 -97q-39 -23 -129 -54q-99 -34 -143 -34q-57 0 -76 33q-23 41 -36 113q-7 24 -16 73q-9 73 -9 132v343 q0 25 35.5 66t59 47.5t30.5 6.5q17 0 22.5 -8t12.5 -8q2 0 41 7q43 7 60 8q162 14 235 14h52q35 -6 35 -35z" />
<glyph unicode="f" horiz-adv-x="649" d="M653 792q0 -32 -37 -76q-40 -46 -83 -53q-38 -6 -45 -6h-143q-2 0 -23 -2q-24 -3 -37 -4q-1 -1 -5 -3q0 -95 7 -176q126 61 257 61q36 0 43 -2q24 -6 24 -30q0 -32 -35.5 -75t-66.5 -49q-4 -1 -102 -9q-73 -5 -116 -25v-243q0 -5 -5 -11q-7 -25 -32 -55q-28 -33 -54 -43 q-22 -9 -35 -9q-30 0 -30 20v288q0 3 -5.5 71.5t-5.5 72.5v272q0 25 35.5 66t59.5 48t31 7q24 0 25.5 -13.5t13.5 -13.5q4 0 72 9.5t72 9.5h145q2 0 18 2.5t19 2.5q38 0 38 -32z" />
<glyph unicode="g" horiz-adv-x="805" d="M774 169q0 -36 -41.5 -80t-78.5 -44q-21 0 -35 23q-26 -23 -114 -59q-96 -38 -143 -38q2 0 -61 12q-19 2 -51 11q-74 40 -109 124q-25 63 -25 136q0 46 20 128q44 185 200 306q142 110 292 110q62 0 96 -36q7 -7 7 -32q0 -37 -42.5 -83t-80.5 -46q-20 0 -28.5 20.5 t-43.5 20.5q-80 0 -149 -44.5t-90 -113.5q-9 -30 -18 -59q-9 -35 -9 -77q0 -61 21 -112q28 -64 83 -91q6 -2 44 -9t37 -7q30 0 85 22q50 20 76 39v104h-91q-32 0 -58 -9.5t-40 -9.5q-47 0 -47 36q0 34 40 79.5t79 47.5q25 2 75 8q29 4 97 4q6 0 26 1q16 2 27 1q18 -2 37 -9 q9 -3 10 -18q1 -14 -2 -42q-2 -31 -2 -29v-124q0 -3 3.5 -30t3.5 -31z" />
<glyph unicode="h" horiz-adv-x="871" d="M781 109q0 -39 -44 -85t-83 -46q-23 0 -32 21l-11 47q-13 61 -18 148q-8 129 -9 145l-292 -8q8 -100 8 -95v-137q0 -37 -46 -85.5t-85 -48.5q-22 0 -29 13q-5 10 -1 42q4 35 2 80q-6 89 -20 277l-13 170q0 -14 3 121q0 39 46.5 85.5t85.5 46.5q27 0 27 -32q0 -8 -1 -20 q-3 -22 1 -147q1 -53 1 -54q2 -30 10 -56q5 0 16.5 -1.5t14.5 -1.5t64 5t65 5h140q1 89 -4 130q-1 6 -7 21.5t-6 19.5q0 38 44.5 86t83.5 48q19 0 26 -11q15 -24 19 -62q6 -62 6 -136v-132q0 -20 7 -126q9 -123 15 -159q2 -9 9 -39q7 -26 7 -29z" />
<glyph unicode="i" horiz-adv-x="500" d="M363 124q0 -38 -44 -90t-86 -52q-15 0 -23 6t-9 16q-1 27 -4 80l-17 255v127q0 -6 -11 170q-5 2 -15 8q-11 10 -11 27q0 42 55.5 93.5t95.5 51.5q20 0 26 -12q8 -16 7 -43q-1 -36 1 -45q1 -12 2.5 -37t9.5 -252q5 -77 13 -221q1 -14 5.5 -47t4.5 -35z" />
<glyph unicode="j" horiz-adv-x="770" d="M665 286q0 -120 -64 -206q-72 -99 -198 -99q-90 0 -184 49q-109 56 -109 133q0 68 71.5 158.5t127.5 90.5q28 0 28 -31q0 -17 -16 -48q-8 -14 -35 -40q-21 -21 -21 -33q0 -36 75 -76q54 -29 79 -34q53 -11 86 -11q8 18 8 48q0 29 -13 121q-44 333 -44 373t40.5 88.5 t84.5 48.5q18 0 24 -14q3 -10 10 -80q5 -54 17 -158l22 -142q11 -81 11 -138z" />
<glyph unicode="k" horiz-adv-x="795" d="M772 94q0 -37 -44.5 -82t-79.5 -45q-21 0 -34 20.5t-25 41.5q-8 20 -76 112q-35 42 -98 101q-74 70 -120 97q-1 -17 1 -47q2 -40 2 -55q0 -13 -4 -49q-5 -39 -5 -49q2 -7 5 -18q-2 -37 -46.5 -82.5t-80.5 -45.5q-19 0 -25.5 9.5t-4.5 74.5l3 15q3 57 -1 142 q-2 63 -10 197q-6 121 -6 122q0 76 3 136q1 36 42.5 79.5t79.5 43.5q30 0 30 -22v-186q0 -48 9 -128q49 56 151 162q24 23 64.5 73t60.5 67q33 29 63 29q29 0 29 -29q0 -32 -29 -72q-35 -46 -198 -221q83 -51 177 -151.5t136 -181.5q5 -9 21 -30q10 -12 10 -28z" />
<glyph unicode="l" horiz-adv-x="704" d="M696 136q0 -40 -46.5 -87.5t-87.5 -47.5q-3 0 -45.5 4t-46.5 4q-50 0 -92 -8q-66 -14 -130 -28t-68 -14q-21 0 -29 7t-12.5 34t-6.5 58q-6 57 -14 170q-12 191 -12 360q0 100 1 113q2 37 47.5 81.5t83.5 44.5q32 0 32 -23v-154q0 -113 11 -286q5 -43 13 -128 q1 -36 9 -102q25 5 68 15q101 30 200 30q125 0 125 -43z" />
<glyph unicode="m" horiz-adv-x="1046" d="M971 105q0 -41 -42 -88q-43 -50 -88 -50q-27 0 -30 20q-3 43 -12 129q-6 25 -16 82q-5 37 -13 117q-2 60 -11 162q-35 -66 -66 -171q-25 -97 -50 -193q-10 -35 -51.5 -70t-71.5 -35q-21 0 -19 0q-9 2 -15 17q-34 91 -72 224q-32 113 -63 225q-61 -193 -68 -304 q-2 -4 -4 -13q-2 -56 -48.5 -108t-87.5 -52q-31 0 -31 36q0 7 8 65q9 65 15 92q14 64 66 248q28 98 41 136q27 80 59 140q14 25 49 56q9 9 63 32q36 16 47 16q29 0 32 -33q1 -25 1 -50q2 -36 10 -101q12 -69 77 -266q5 15 18 46q28 49 75 144q30 70 84 139q73 94 132 94 q33 0 33 -23v-164q0 -3 2 -22t2 -27q0 -38 5 -114q5 -45 19 -161q3 -14 9 -41q12 -87 12 -134z" />
<glyph unicode="n" horiz-adv-x="830" d="M731 118q0 -41 -40 -90q-44 -53 -88 -53q-16 0 -24.5 9.5t-6.5 9.5q-4 0 -8.5 -1.5t-7.5 -1.5q-23 0 -37.5 23.5t-29.5 47.5q-46 57 -105 142q-50 73 -100 145q0 -86 7 -196q0 -8 6 -34t6 -29q0 -40 -42 -82.5t-79 -42.5q-28 0 -37 24q-3 8 -7 50q-14 141 -14 321 q0 2 4 105t4 106v137l7 19q12 34 51 68t70 34q15 0 21 -5q14 -14 4 -48q-2 -10 6 -31q66 -169 272 -453q5 38 5 80v334q0 1 7 21q12 37 50.5 69.5t69.5 32.5q21 0 25 -18q2 -6 1 -35q-12 -330 0 -628q0 -3 5 -13t5 -17z" />
<glyph unicode="o" horiz-adv-x="862" d="M821 531q0 -136 -75 -259q-83 -135 -240 -227q-48 -28 -109 -47.5t-103 -19.5q-99 0 -144 77q-34 57 -34 143q0 198 115 384q121 197 282 223q94 15 88 15q78 0 139.5 -58t74.5 -151q6 -44 6 -80zM667 433q0 144 -90 204q-35 23 -70 23q-18 0 -31 -4q-16 -4 -45 -16 q-14 -8 -36 -19q-10 -3 -24 -12q-47 -61 -73 -154q-25 -83 -25 -160q0 -56 20 -97q29 -60 96 -60q46 0 120 36q84 41 117 98q41 71 41 161z" />
<glyph unicode="p" horiz-adv-x="705" d="M719 687q0 -91 -104 -194q-94 -93 -204 -134q-31 -12 -124 -35q1 -40 8 -123q5 -77 5 -78q0 -42 -41 -90t-84 -48q-17 0 -23 6q-11 11 -13 38q-17 159 -17 261v143q0 3 -2.5 31t-2.5 31v133q0 2 -5.5 11.5t-5.5 13.5t4.5 16.5t5.5 17.5q7 44 48.5 85t78.5 41 q18 0 23.5 -8t8.5 -8q-1 0 34 10q92 25 157 25q148 0 225 -79q28 -29 28 -66zM559 588q0 16 -39 41q-32 21 -47 26q-29 8 -49 10q-70 4 -58 4q-16 0 -92 -13q5 -114 5 -167q14 -1 22.5 -6t10.5 -5q8 0 53 8q51 10 78 19q16 5 70 36q46 26 46 47z" />
<glyph unicode="q" horiz-adv-x="881" d="M846 469q0 -53 -12 -123q-15 -88 -41 -131l-20 -33q0 -9 41 -37q12 -7 12 -25q0 -41 -47 -84.5t-84 -43.5q-20 0 -42.5 22t-21.5 22q3 0 -29 -17q-86 -48 -169 -48q-148 0 -244 91t-96 219q0 37 17 113q7 20 16 55q27 116 144 233q112 113 209 132q62 13 68 13 q4 0 29 -13q7 -1 18 -2q33 -3 55 -13q197 -86 197 -330zM689 379q0 96 -22 136q-80 141 -213 141q-3 0 -26 -6.5t-26 -6.5q-4 0 -9 3t-8 3q-7 0 -35 -26q-25 -22 -28 -27q-20 -26 -35 -58q-19 -43 -31 -105q-6 -30 -6 -55q0 -98 76 -169q80 -76 200 -76q16 0 33 1 q-22 29 -51 64q-18 20 -36 40.5t-18 34.5q0 40 46.5 86t88.5 46q12 0 18 -3.5t9 -15.5l4 -14q9 -15 33 -39.5t30 -34.5q6 55 6 81z" />
<glyph unicode="r" horiz-adv-x="797" d="M761 114q0 -39 -43 -84t-82 -45q-29 0 -65 71q-11 25 -37 69q-26 34 -64 70q-47 46 -79 57t-102 27q-2 -1 -2 -148q6 -16 6 -24q0 -39 -43 -87q-45 -51 -86 -51q-10 0 -21 5.5t-11 14.5v383q0 3 -2.5 46.5t-2.5 46.5v107q-37 0 -37 31q0 16 14 44q7 9 17 26q8 42 20 61 q18 29 49 51.5t57 22.5q23 0 34 -24q70 32 162 32q78 0 150 -19q94 -24 138 -74q14 -16 14 -56q0 -69 -57.5 -144.5t-144.5 -126.5q32 -27 64 -55q44 -39 63 -65q23 -31 49 -80.5t38 -64.5q4 -4 4 -17zM587 570q0 27 -68 54q-43 16 -78 23q-45 9 -96 9q-3 0 -25 -2 q-25 -2 -33 -2l-4 3v-32q0 11 5 -77v-98q30 17 63 20l56 4q45 9 114 43q19 9 39 18q27 16 27 37z" />
<glyph unicode="s" horiz-adv-x="714" d="M709 296q0 -63 -50 -140q-19 -29 -56 -64.5t-64 -48.5q-52 -26 -131 -46q-82 -21 -136 -21q-114 0 -114 72q0 43 51 110q55 72 105 72q29 0 29 -33q0 -20 -18 -50q12 -10 45 -10q41 0 105 17q59 16 75 27q1 7 1 13q0 53 -59 100q-54 42 -100 42q-2 0 -63 -19 q-69 -21 -101 -28q-37 -9 -65 -9q-69 0 -69 87q0 99 92 232q95 138 208 191q19 9 53 25q24 9 91 9q126 0 126 -90q0 -21 -1 -28q-6 -39 -48.5 -78.5t-76.5 -39.5q-26 0 -30 19q1 11 -1 32q-5 18 -31 22q-5 1 -36 1q-38 0 -50 -4q-47 -13 -93.5 -80.5t-46.5 -112.5 q0 -3 1.5 -9.5t1.5 -11.5l2.5 -1t6.5 -1t112.5 28t111.5 28q59 0 120 -37q67 -41 94 -105q9 -21 9 -60z" />
<glyph unicode="t" horiz-adv-x="854" d="M835 782q0 -40 -46 -86t-85 -46q-3 0 -17.5 3t-19.5 4q-10 1 -37 1q-18 0 -94 -4q-15 -1 -44 -6q1 -40 6 -126q5 -78 5 -80v-110q0 -4 2.5 -74t2.5 -73q0 -37 -1 -81q-1 -38 -47 -86.5t-83 -48.5q-13 0 -24 6q-6 4 -8 21q-2 14 0 23q5 19 5 61q0 4 -2.5 49t-2.5 48v109 q0 3 -5.5 96.5t-5.5 97.5v159h-30q-4 0 -118.5 -17.5t-118.5 -17.5q-13 0 -23 9.5t-10 22.5q0 35 41 81t81 52q60 10 182 27q81 8 239 17q134 8 148 8q50 0 68 -3q42 -8 42 -36z" />
<glyph unicode="u" horiz-adv-x="805" d="M739 136q0 -43 -36 -89q-39 -49 -84 -49q-12 0 -20.5 5t-9.5 21v21q-3 16 -7 50q-57 -53 -141.5 -89t-152.5 -36q-67 0 -100 24q-67 48 -67 255q0 2 4 94q5 97 5 121q4 113 4 125q4 78 13 110.5t48 68t70 35.5q30 0 30 -38q0 -3 -10.5 -211t-10.5 -211q0 -170 46 -204 q14 -11 63 -11q66 0 117 31q6 9 20 27q21 26 51 41q-13 324 -13 381v94q2 32 43 74t78 42q30 0 30 -22v-125q0 -2 2 -36t2 -43q1 -77 6 -202q3 -49 12 -156q8 -96 8 -98z" />
<glyph unicode="v" horiz-adv-x="672" d="M655 772q0 -13 -18 -64l-22 -64q-22 -70 -60 -213q-18 -81 -36 -163q-20 -96 -27 -163q-5 -40 -46.5 -84t-78.5 -44q-15 0 -18 4q-7 8 -30 55q-48 99 -73 167l-84 222q-46 124 -70 224q-1 3 -6.5 14t-5.5 14q0 40 45.5 84t83.5 44q15 0 21 -4.5t10 -34.5q3 -19 10 -45 q22 -77 145 -402q35 134 64 232q11 31 33 99q12 41 21 59q18 39 50 67.5t61 28.5q31 0 31 -33z" />
<glyph unicode="w" horiz-adv-x="924" d="M912 818q0 -2 -6.5 -26.5t-8.5 -35.5q-5 -63 -22 -187q-2 -13 -45 -165q-15 -54 -83 -280q-13 -40 -55 -81t-77 -41q-22 0 -35 18q-12 22 -24 45q-3 14 -10 41q-2 8 -18 67q-13 55 -41 166q-29 -93 -58 -187q-37 -108 -85 -143q-39 -27 -61 -27q-17 0 -23 6l-12 36 q-43 111 -54 172q-22 104 -45 208q-36 171 -36 261q0 23 1 27q5 37 47.5 76t73.5 39q28 0 33 -32q0 -25 1 -49q8 -97 33 -220q22 -98 44 -195q1 -1 3 2q23 61 47 166q19 89 39 178q8 32 47.5 67.5t71.5 35.5q19 0 23 -8q7 -14 15 -54q4 -23 12 -67q36 -207 70 -318 q38 116 50 182q8 76 29 228q5 28 34 66q31 43 62 55q22 9 32 9q31 0 31 -35z" />
<glyph unicode="x" horiz-adv-x="841" d="M799 131q0 -43 -48.5 -91t-89.5 -48q-18 0 -22 4q-28 25 -82 105q-18 27 -172 232q-30 -36 -86 -113q-29 -43 -60 -127q-16 -42 -53 -78q-41 -39 -77 -39q-32 0 -32 33q0 20 13 50q9 22 19 43q32 77 52 108q27 42 98 133q61 79 61 82q0 9 -53 77q-46 54 -131 157 q-9 12 -9 26q0 39 48 88t91 49q17 0 37 -6.5t24 -10.5q8 -8 2 -45q67 -81 128 -162q46 56 113 115q91 79 135 79q33 0 33 -34q0 -62 -117 -139q-27 -18 -66 -63q-35 -41 -35 -48q0 -1 106 -143q32 -43 112 -160q2 -3 57 -58q4 -4 4 -16z" />
<glyph unicode="y" horiz-adv-x="691" d="M696 682q0 -259 -221 -374q4 -56 11 -161q0 -8 3.5 -25.5t3.5 -19.5q0 -38 -44 -84.5t-81 -46.5q-19 0 -25.5 9t-8.5 36q-1 19 -1 38q-1 30 -4 87q-9 105 -9 99q0 16 2 31q-8 3 -25 4q-112 7 -163 103q-38 71 -38 176q0 3 11 139q3 38 46.5 82.5t79.5 44.5q35 0 35 -32 q0 -3 -5.5 -19.5t-6.5 -22.5q-6 -34 -6 -96q0 -220 172 -220q78 0 99 33q9 14 14 50q7 49 7 78q0 25 -20 78v16q0 38 40 84t80 46q21 0 25 -9q17 -36 26 -80q3 -18 3 -44z" />
<glyph unicode="z" horiz-adv-x="903" d="M866 116q0 -40 -45.5 -84t-80.5 -44q-18 0 -38 12q-5 5 -16 11q-23 8 -55 11q-11 1 -107 1h-105q-29 -2 -185 -22q-20 -3 -72 -12q-46 -8 -49 -8q-37 0 -37 35q0 29 43 110q19 23 54 69q106 149 380 462q-70 1 -123 -4q-35 -4 -116 -13q-71 -8 -74 -8q-28 0 -37 4 q-16 7 -16 28q0 39 46 87t85 48q3 0 14 -2.5t14 -2.5q-4 0 39 4q66 8 132.5 15t147.5 7t144 -11q22 -4 22 -31q0 -22 -23.5 -55.5t-45.5 -49.5q-14 -10 -38 -19q-20 -7 -39 -15q-10 -3 -26 -15q-266 -286 -387 -467q35 3 120 13q116 15 228 15q103 0 114 -1q26 -5 75 -14 q4 0 22 -14q7 -2 21 -10q14 -11 14 -30z" />
<glyph unicode="{" horiz-adv-x="628" d="M521 664q0 -39 -45 -86t-85 -47q-10 0 -80 45l-80 52q-23 13 -23 36q0 39 45 86t86 47q12 0 14 -1q99 -60 154 -102q14 -11 14 -30zM494 422q0 -28 -27 -64.5t-56 -54.5q-24 -14 -65 -22l-62 -10q-67 -13 -77 -13q-43 0 -43 36q0 41 45 88t86 47q3 0 9 -1.5t8 -1.5 q4 0 73.5 14t72.5 14q36 0 36 -32zM543 194q0 -59 -78 -112q-60 -41 -121 -56q-1 0 -31 -12q-22 -9 -43 -9q-40 0 -40 36q0 38 38.5 81t77.5 53q10 0 28 2q10 2 41 13q26 11 51 22q32 13 46 13q31 0 31 -31z" />
<glyph unicode="|" horiz-adv-x="481" d="M362 774q0 -4 -7.5 -141t-7.5 -141v-196q0 5 -6 -57.5t-4 -93.5q0 -2 2 -21q3 -15 1 -24q-5 -36 -48 -78t-78 -42q-34 0 -34 83q0 4 5.5 80t5.5 79v225q0 2 2.5 24.5t2.5 25.5v98q0 57 14 111q8 34 49 70.5t73 36.5q30 0 30 -39z" />
<glyph unicode="}" horiz-adv-x="585" d="M482 770q0 -26 -20 -54q-24 -33 -52 -54q-18 -10 -50 -31q-36 -35 -74 -69.5t-70 -34.5q-31 0 -31 28q0 32 29 68q48 58 113 111q79 63 123 63q32 0 32 -27zM461 432q0 -33 -37.5 -75.5t-74.5 -50.5q-17 -3 -96 -3q-74 0 -83 1q-12 1 -17 5q-10 11 -10 28q0 39 43 84 t81 45q-3 0 29 -1q43 -1 132 -2q33 0 33 -31zM437 118q0 -35 -43.5 -81.5t-81.5 -46.5q-24 0 -93 41q-57 34 -72 47.5t-15 35.5q0 36 43 81t82 45q12 0 24 -10q22 -20 45 -34q36 -18 104 -56q7 -5 7 -22z" />
<glyph unicode="~" horiz-adv-x="829" d="M709 756q0 -18 -23 -53q-7 -11 -24 -32q-94 -85 -185 -85q-43 0 -98.5 39t-94.5 39q-9 0 -18 -1q-13 -24 -39 -44q-29 -22 -50 -22q-24 0 -24 26q0 34 53 91.5t93 66.5q6 3 18.5 6.5t38.5 3.5q42 0 31 1q14 -1 41 -13q3 -1 59 -36q44 -28 66 -28q37 0 70.5 32.5 t61.5 32.5q24 0 24 -24z" />
<glyph unicode="&#xa3;" horiz-adv-x="1023" d="M908 119q0 -29 -28.5 -66t-63.5 -51q-20 -9 -49 -9q-13 0 -53.5 7t-64 18.5t-60.5 44.5q-30 18 -90 57q-16 -33 -55 -68q-42 -37 -75 -43q-90 -16 -124 -16q-96 0 -96 103q0 2 8 73q8 64 61 131q58 75 122 75q7 0 67 -13v134q0 98 84 203q92 115 201 115q47 0 119 -42 q6 -4 27 -36q4 -3 11 -11t7 -20q0 -40 -46.5 -83.5t-81.5 -43.5q-19 0 -29 15q-17 25 -27 33q-16 12 -52 26q-9 4 -23 4q-17 0 -27 -23q-8 -17 -8 -33v-77q51 15 72 18h49q37 0 44 -1q27 -6 27 -30q0 -34 -38.5 -77.5t-79.5 -48.5q-24 -1 -75 -2q-1 0 -3 -4q-4 -19 -4 -69 q50 -26 111 -67l104 -72q10 -6 55 -12q54 -7 72 -13q12 -3 12 -26zM390 169q-39 18 -85 32v-24q0 -25 36 -25q49 0 49 17z" />
<glyph unicode="&#xa5;" horiz-adv-x="1135" d="M1072 595q0 -33 -40.5 -78.5t-72.5 -49.5q-8 -1 -47 2q-28 2 -46 -6q-26 -27 -79 -75q-38 -29 -105 -64q-98 -52 -171 -52h-105q-1 -53 1 -70q7 -71 7 -66q0 -44 -41 -92q-42 -52 -87 -52q-17 0 -25 8t-8 29q-1 33 -1 34l-6 48l-2 303q-25 0 -74 -3q-6 -1 -21.5 -6 t-19.5 -5q-35 0 -35 31q0 43 51 90.5t99 48.5q0 6 -3 18t-3 15q0 2 4.5 21t5.5 28q2 26 12 75q9 32 50 67t71 35q18 0 25 -11q3 -6 7 -29q53 16 97 16q137 0 290 -67q31 -14 63 -49q29 -32 43 -65q18 3 73 3q51 0 56 -1q37 -5 37 -31zM750 491q-15 59 -93 95q-47 23 -143 45 q-40 9 -56 9h-52v-186q96 -19 145 -19q64 0 98 8q47 12 101 48z" />
<glyph unicode="&#xa9;" horiz-adv-x="1014" d="M909 447q0 -197 -124 -328q-127 -132 -323 -132q-75 0 -160 31q-171 63 -171 242q0 91 30 173q19 50 88 151.5t157 158.5t173 57q28 0 35 -2q18 -4 36 -22q24 0 70 -7q189 -58 189 -322zM801 382q0 86 -27 153q-40 96 -127 124q-20 6 -76 6q-3 0 -18 -1.5t-18 -1.5 q-7 0 -17.5 6.5t-10.5 15.5q0 2 1 5h-15q-2 0 -41 -10q-55 -14 -117 -96q-45 -59 -74 -123q-22 -49 -22 -133q0 -74 31 -121q38 -56 128 -86q70 -23 129 -23q137 0 204 65q70 70 70 220zM656 357q0 -16 -17 -41q-19 -28 -43 -40q-8 -5 -54 -16q-74 -18 -78 -18 q-107 0 -107 132q0 119 106 181q49 29 91 29q26 0 58.5 -19t32.5 -45q0 -28 -29.5 -57t-55.5 -29q-10 0 -31.5 20t-40.5 20q-18 0 -22 -10q-1 -3 -1 -24q0 -42 11 -61q14 -26 53 -26q3 0 52 12t52 12q23 0 23 -20z" />
<glyph unicode="&#xad;" d="M552 424q0 -26 -31.5 -63.5t-60.5 -45.5q-19 -5 -33 -5q-2 0 -63.5 4.5t-64.5 4.5h-105q-9 0 -15.5 9.5t-6.5 17.5q0 30 36.5 70.5t71.5 44.5h56q35 0 111 -4q84 -4 91 -8q14 -9 14 -25z" />
<glyph unicode="&#xae;" horiz-adv-x="1031" d="M905 469q0 -20 -8 -62q-11 -57 -13 -70q-13 -93 -106 -185q-85 -86 -158 -101q-20 -9 -63 -26q-60 -23 -111 -23t-133 30q-94 34 -141 127q-39 74 -39 165q0 57 14 107q9 35 37 103q48 115 151 190q21 15 86 43q75 33 148 33q40 0 62 -5q18 -7 53 -17q18 -1 55 -10 q4 -8 17 -20q103 -48 121 -109q28 -100 28 -170zM528 440q-34 16 -55 20q6 -44 5 -46q35 17 50 26zM795 402q0 38 -10 89t-21 73q-17 35 -53 56q-31 15 -63 30q-11 6 -33 8q-26 3 -31 4q-3 5 -11 15q-19 10 -72 10q-38 0 -52 -4q-58 -15 -103 -42q-26 -15 -38 -38 q-40 -72 -52.5 -113t-12.5 -97q0 -73 32 -137q41 -85 124 -114q76 -26 116 -26q43 0 141 42q107 48 101 84q-37 1 -109 4q-57 4 -158 32q-6 -24 -36 -53t-52 -29q-6 0 -10 2q-9 9 -10 13q-7 27 -10 73q-1 29 -3 59q-2 21 -9 65q-6 41 -6 43q0 27 3 35q13 29 39 52.5t52 23.5 q3 0 4.5 -1t4.5 -1q59 16 68 16q32 0 69 -15q52 -22 52 -59q0 -51 -69 -115q131 -29 151 -28h64q0 8 1.5 24.5t1.5 18.5z" />
<glyph unicode="&#x2000;" horiz-adv-x="426" />
<glyph unicode="&#x2001;" horiz-adv-x="853" />
<glyph unicode="&#x2002;" horiz-adv-x="426" />
<glyph unicode="&#x2003;" horiz-adv-x="853" />
<glyph unicode="&#x2004;" horiz-adv-x="284" />
<glyph unicode="&#x2005;" horiz-adv-x="213" />
<glyph unicode="&#x2006;" horiz-adv-x="142" />
<glyph unicode="&#x2007;" horiz-adv-x="142" />
<glyph unicode="&#x2008;" horiz-adv-x="106" />
<glyph unicode="&#x2009;" horiz-adv-x="170" />
<glyph unicode="&#x200a;" horiz-adv-x="47" />
<glyph unicode="&#x2010;" d="M552 424q0 -26 -31.5 -63.5t-60.5 -45.5q-19 -5 -33 -5q-2 0 -63.5 4.5t-64.5 4.5h-105q-9 0 -15.5 9.5t-6.5 17.5q0 30 36.5 70.5t71.5 44.5h56q35 0 111 -4q84 -4 91 -8q14 -9 14 -25z" />
<glyph unicode="&#x2011;" d="M552 424q0 -26 -31.5 -63.5t-60.5 -45.5q-19 -5 -33 -5q-2 0 -63.5 4.5t-64.5 4.5h-105q-9 0 -15.5 9.5t-6.5 17.5q0 30 36.5 70.5t71.5 44.5h56q35 0 111 -4q84 -4 91 -8q14 -9 14 -25z" />
<glyph unicode="&#x2012;" d="M552 424q0 -26 -31.5 -63.5t-60.5 -45.5q-19 -5 -33 -5q-2 0 -63.5 4.5t-64.5 4.5h-105q-9 0 -15.5 9.5t-6.5 17.5q0 30 36.5 70.5t71.5 44.5h56q35 0 111 -4q84 -4 91 -8q14 -9 14 -25z" />
<glyph unicode="&#x2013;" horiz-adv-x="841" d="M672 424q0 -26 -41.5 -63.5t-79.5 -45.5q-25 -5 -43 -5q-3 0 -84 4.5t-85 4.5h-138q-12 0 -20.5 9.5t-8.5 17.5q0 30 48 70.5t94 44.5h74q46 0 146 -4q110 -4 120 -8q18 -9 18 -25z" />
<glyph unicode="&#x2014;" horiz-adv-x="1341" d="M1172 424q0 -26 -83 -63.5t-159 -45.5q-50 -5 -87 -5q-5 0 -167 4.5t-170 4.5h-276q-24 0 -41 9.5t-17 17.5q0 30 96 70.5t188 44.5h148q92 0 292 -4q221 -4 239 -8q37 -9 37 -25z" />
<glyph unicode="&#x202f;" horiz-adv-x="170" />
<glyph unicode="&#x205f;" horiz-adv-x="213" />
<glyph unicode="&#x2122;" horiz-adv-x="1008" d="M866 512q0 -22 -24 -46.5t-43 -24.5q-10 0 -13 3.5t-9 16.5t-20 56q-11 35 -32 104q-14 -41 -35 -96q-3 -10 -12 -32q-8 -15 -29 -31.5t-35 -16.5q-18 0 -23 5q-9 10 -20 38t-29 81q-7 24 -19 72l-44 -106q-36 -75 -78 -75q-5 0 -15 9q0 7 1 19q17 36 48 109 q34 89 40 100q46 94 91 94q18 0 28 -25q0 -1 8 -31q4 -22 15 -65q8 -30 24 -79q28 64 40 113q8 30 42 59t58 24q7 -7 8 -12q10 -41 28 -111q11 -38 32 -108q1 -4 10 -21q7 -12 7 -23zM457 750q0 -19 -20 -41.5t-43 -28.5q-25 0 -70 -9v-148q0 -22 1 -17q-3 -17 -26.5 -40 t-42.5 -23q-4 0 -10 5.5t-6 10.5q0 98 2 202q-3 5 -12 3q-17 -3 -19 -3q-9 -1 -28.5 -2t-21.5 -1q-41 0 -41 18t18 41t39 26q54 9 160 17q87 8 101 8q19 0 19 -18z" />
<glyph unicode="&#xe000;" horiz-adv-x="820" d="M0 820h820v-820h-820v820z" />
</font>
</defs>
</svg>
